View Single Post
Old 06-17-2008, 09:26 PM   #47 (permalink)
Ashex
Knows Where the Search Button Is
 
Join Date: Jun 2008
Model: 8130
PIN: N/A
Carrier: Sprint
Posts: 25
Post Thanks: 0
Thanked 0 Times in 0 Posts
Default

looks like that did the trick, this is what I got:


Code:
ahmed@Phorin:~/temp$ ffmpeg -i bsg.s03e08.mp4
FFmpeg version SVN-rUNKNOWN, Copyright (c) 2000-2007 Fabrice Bellard, et al.
  configuration: --enable-gpl --enable-pp --enable-swscaler --enable-pthreads --enable-libvorbis --enable-libtheora --enable-libogg --enable-libgsm --enable-dc1394 --disable-debug --enable-shared --prefix=/usr
  libavutil version: 1d.49.3.0
  libavcodec version: 1d.51.38.0
  libavformat version: 1d.51.10.0
  built on Mar 12 2008 15:36:03, gcc: 4.2.3 (Ubuntu 4.2.3-2ubuntu4)
Input #0, mov,mp4,m4a,3gp,3g2,mj2, from 'bsg.s03e08.mp4':
  Duration: 00:42:50.5, start: 0.000000, bitrate: 580 kb/s
  Stream #0.0(ehs): Video: mpeg4, yuv420p, 240x135, 24.00 fps(r)
  Stream #0.1(ehs): Audio: mp4a / 0x6134706D, 44100 Hz, stereo
Must supply at least one output file
looks like mpeg4aac?
Offline   Reply With Quote